<?xml version="1.0" standalone="no"?>
<!DOCTYPE svg PUBLIC "-//W3C//DTD SVG 1.1//EN" "http://www.w3.org/Graphics/SVG/1.1/DTD/svg11.dtd" >
<svg xmlns="http://www.w3.org/2000/svg" xmlns:xlink="http://www.w3.org/1999/xlink" version="1.1">
<metadata>
Created by FontForge 20170924 at Mon Nov 22 15:07:53 2021
 By www
Copyright Micha Nowak 2014
"Corruptor Clean LDR
</metadata>
<defs>
<font id="Critical-Mass-LDR" horiz-adv-x="1472" >
  <font-face 
    font-family="Critical Mass LDR"
    font-weight="400"
    font-stretch="normal"
    units-per-em="1024"
    panose-1="0 0 4 0 0 0 0 0 0 0"
    ascent="819"
    descent="-205"
    x-height="896"
    cap-height="896"
    bbox="-64 -192 1536 1088"
    underline-thickness="51"
    underline-position="77"
    unicode-range="U+0020-007E"
  />
    <missing-glyph />
    <glyph glyph-name="space" unicode=" " horiz-adv-x="1152" 
 />
    <glyph glyph-name="exclam" unicode="!" horiz-adv-x="320" 
d="M0 0v320l256 -256v-64h-256zM0 320v576h256v-576h-256z" />
    <glyph glyph-name="quotedbl" unicode="&#x22;" horiz-adv-x="640" 
d="M256 448l-256 256v192h256v-448v0zM576 448l-256 256v192h256v-448v0z" />
    <glyph glyph-name="numbersign" unicode="#" 
d="M832 -32v128h256v-128h-256zM0 160v256h256v-256h-256zM736 160l-256 256h928v-256h-672zM320 -32v512l256 -256v-256h-256zM0 480v256h672l256 -256h-928zM1152 480v256h256v-256h-256zM320 800v128h256v-128h-256zM1088 416l-256 256v256h256v-512v0z" />
    <glyph glyph-name="dollar" unicode="$" 
d="M512 -192v64l128 128v-192h-128zM768 -192v64l128 128v-192h-128zM256 0l-256 256h1152v-256h-896zM1408 0l-256 256v64h-1152v320l256 256h1152v-256h-1056l-64 -64h1120v-576v0zM512 896v192h128v-64l-128 -128v0zM768 896v192h128v-64l-128 -128v0z" />
    <glyph glyph-name="percent" unicode="%" 
d="M896 0v320h320l192 -192v-128h-512zM192 576l-192 192v128h512v-320h-320zM0 0v256h336l640 640h432v-256h-336l-640 -640h-432z" />
    <glyph glyph-name="ampersand" unicode="&#x26;" 
d="M1232 0l-120 120l176 176l120 -120v-176h-176zM192 0l-192 192l176 176l112 -112h416l-256 -256h-256zM544 0l704 704h160v-256h-64l-448 -448h-352zM320 320l-320 320l256 256h384l128 -128l-128 -128h-288l64 -64h256l160 160v160l256 -256l-320 -320h-448z" />
    <glyph glyph-name="quotesingle" unicode="'" horiz-adv-x="320" 
d="M256 448l-256 256v192h256v-448v0z" />
    <glyph glyph-name="parenleft" unicode="(" horiz-adv-x="576" 
d="M256 0l-256 256v384h256v-384h256v-256h-256zM256 640l-256 256h512v-256h-256z" />
    <glyph glyph-name="parenright" unicode=")" horiz-adv-x="576" 
d="M0 0v256h256l256 -256h-512zM256 256v384h-256v256h256l256 -256v-384h-256z" />
    <glyph glyph-name="asterisk" unicode="*" horiz-adv-x="832" 
d="M0 256l256 256v-256h-256zM512 256v256l256 -256h-256zM0 512v256h256v128h256v-128h256v-256h-768z" />
    <glyph glyph-name="plus" unicode="+" horiz-adv-x="960" 
d="M0 320v256h64l256 -256h-320zM320 0v896h256v-320h320v-256h-320v-320h-256z" />
    <glyph glyph-name="comma" unicode="," horiz-adv-x="320" 
d="M256 -192l-256 256v192h256v-448v0z" />
    <glyph glyph-name="hyphen" unicode="-" horiz-adv-x="960" 
d="M0 320v256h896v-256h-896z" />
    <glyph glyph-name="period" unicode="." horiz-adv-x="320" 
d="M0 0v256h256v-256h-256z" />
    <glyph glyph-name="slash" unicode="/" 
d="M0 0v256h336l640 640h432v-256h-336l-640 -640h-432z" />
    <glyph glyph-name="zero" unicode="0" 
d="M1152 256v288l-96 96h-800v-288l96 -96h800zM256 0l-256 256v640h1152l256 -256v-640h-1152z" />
    <glyph glyph-name="one" unicode="1" horiz-adv-x="448" 
d="M128 0v416l-128 -128v352l384 384v-1024h-256z" />
    <glyph glyph-name="two" unicode="2" 
d="M608 0v256h800v-256h-800zM-64 -64l640 640h416l64 64h352l-320 -320h-416l-384 -384h-352zM128 512l-128 128l256 256h704l128 -128l-128 -128h-544l-32 -32l96 -96h-352z" />
    <glyph glyph-name="three" unicode="3" 
d="M320 0l-320 320h352l64 -64h576l32 32l-64 64l176 176l272 -272l-256 -256h-832zM128 512l-128 128l256 256h704l-256 -256h-288l-32 -32l96 -96h-352zM384 320l256 256h96l320 320h352l-576 -576h-448z" />
    <glyph glyph-name="four" unicode="4" 
d="M-64 256l640 640h352l-384 -384h352l256 -256h-1216zM1152 0v896h256v-896h-256z" />
    <glyph glyph-name="five" unicode="5" 
d="M0 0l256 256h832l-256 -256h-832zM928 0l224 224v96h-1152v320h256v-64h1152v-448l-128 -128h-352zM256 640l-256 256h1408v-256h-1152z" />
    <glyph glyph-name="six" unicode="6" 
d="M768 0l-256 256h544l64 64h-512v256h800v-320l-256 -256h-384zM320 0l-320 320l576 576h512l-256 -256h-160l-320 -320l320 -320h-352z" />
    <glyph glyph-name="seven" unicode="7" horiz-adv-x="1408" 
d="M0 -64l512 512h224l128 128h352l-384 -384h-224l-256 -256h-352zM0 640v256h1344v-256h-1344z" />
    <glyph glyph-name="eight" unicode="8" 
d="M192 0l-192 192l176 176l368 -368h-352zM640 0l-256 256h736l112 112l176 -176l-192 -192h-576zM320 320l-320 320l256 256v-160l160 -160h576l64 64h-608l-128 128l128 128h704l256 -256l-320 -320h-768z" />
    <glyph glyph-name="nine" unicode="9" 
d="M128 320l-128 128v400l272 -272h464l256 -256h-864zM384 0l256 256h288l224 224v160h-848l-256 256h1360v-512l-384 -384h-640z" />
    <glyph glyph-name="colon" unicode=":" horiz-adv-x="320" 
d="M0 0v256h256v-256h-256zM0 512v256h256v-256h-256z" />
    <glyph glyph-name="semicolon" unicode=";" horiz-adv-x="320" 
d="M256 -192l-256 256v192h256v-448v0zM0 512v256h256v-256h-256z" />
    <glyph glyph-name="less" unicode="&#x3c;" horiz-adv-x="832" 
d="M408 48l-400 400l176 176l576 -576h-352zM408 496l-176 176l176 176h352l-352 -352v0z" />
    <glyph glyph-name="equal" unicode="=" horiz-adv-x="960" 
d="M0 128v256h896v-256h-896zM0 512v256h896v-256h-896z" />
    <glyph glyph-name="greater" unicode="&#x3e;" horiz-adv-x="832" 
d="M8 48l352 352l176 -176l-176 -176h-352zM584 272l-576 576h352l400 -400l-176 -176v0z" />
    <glyph glyph-name="question" unicode="?" 
d="M512 0v64l256 256v-320h-256zM512 320l256 256h224l32 32l-32 32h-576l-32 -32l96 -96h-352l-128 128l256 256h896l256 -256l-320 -320h-576z" />
    <glyph glyph-name="at" unicode="@" horiz-adv-x="1600" 
d="M96 -128l128 128h1072l240 240v-176l-192 -192h-1248zM256 128v384l256 256h704v-384h256l-256 -256h-256v384h-448v-128h384l-256 -256h-384zM0 -128v768l384 384h1088v-448l-128 -128v448h-912l-304 -304v-592l-128 -128v0z" />
    <glyph glyph-name="A" unicode="A" 
d="M128 -160v352l384 384h640l-256 -256h-288l-480 -480v0zM1152 0v640h-672l-128 -128h-352l384 384h1024v-896h-256z" />
    <glyph glyph-name="B" unicode="B" 
d="M0 0v640h256v-384h672l240 240l240 -240l-256 -256h-1152zM256 320l256 256h288l32 32l-32 32h-544l-256 256h896l288 -288l-288 -288h-640z" />
    <glyph glyph-name="C" unicode="C" 
d="M576 0l-352 352l224 224h352l-224 -224l96 -96h736v-256h-832zM176 400l-176 176l320 320h1088v-256h-992l-240 -240v0z" />
    <glyph glyph-name="D" unicode="D" 
d="M0 0v384l256 256v-384h576l-256 -256h-576zM608 -64l544 544v160h-1152v256h1408v-512l-448 -448h-352z" />
    <glyph glyph-name="E" unicode="E" 
d="M832 0l-256 256h832v-256h-576zM512 320l-256 256h1152v-256h-896zM448 -64l-448 448v256h256v-160l544 -544h-352zM256 640l-256 256h1408v-256h-1152z" />
    <glyph glyph-name="F" unicode="F" 
d="M64 0v448l128 128h352l-224 -224v-352h-256zM384 320l256 256h768v-256h-1024zM0 640l256 256h1152v-256h-1408z" />
    <glyph glyph-name="G" unicode="G" 
d="M320 0l-256 256l320 320h352l-288 -288l32 -32h672v64h-384l256 256h384v-576h-1088zM176 464l-176 176l256 256h1152v-256h-1056l-176 -176v0z" />
    <glyph glyph-name="H" unicode="H" 
d="M0 0v896h256v-320h896l-256 -256h-640v-320h-256zM1152 0v896h256v-896h-256z" />
    <glyph glyph-name="I" unicode="I" horiz-adv-x="320" 
d="M0 -128v1024h256v-768l-256 -256v0z" />
    <glyph glyph-name="J" unicode="J" 
d="M320 0l-320 320l256 256h352l-256 -256l64 -64h576l64 64h352l-320 -320h-768zM928 384l224 224v288h256v-384l-128 -128h-352z" />
    <glyph glyph-name="K" unicode="K" 
d="M0 0v896h256v-320h192l320 -320h640v-256h-736l-320 320h-96v-320h-256zM736 384l-176 176l336 336h512v-256h-416l-256 -256v0z" />
    <glyph glyph-name="L" unicode="L" 
d="M256 0l-256 256v640h256v-544l96 -96h1056l-256 -256h-896z" />
    <glyph glyph-name="M" unicode="M" 
d="M0 0v448l256 -256v-192h-256zM704 -160l-704 704v352l704 -704l704 704v-896h-256v288l-448 -448v0z" />
    <glyph glyph-name="N" unicode="N" 
d="M0 0v880l256 -256v-624h-256zM976 0l-896 896h352l576 -576h144v576h256v-896h-432z" />
    <glyph glyph-name="O" unicode="O" 
d="M1152 256v384h-896v-288l96 -96h800zM256 0l-256 256v640h1408v-896h-1152z" />
    <glyph glyph-name="P" unicode="P" 
d="M64 0v576h256v-576h-256zM0 640v256h1312l-256 -256h-1056zM576 320l-256 256h768l320 320v-352l-224 -224h-608z" />
    <glyph glyph-name="Q" unicode="Q" 
d="M0 0v512l384 384h1024v-848l-256 256v336h-672l-224 -224v-160h496l-128 128h352l384 -384h-1360z" />
    <glyph glyph-name="R" unicode="R" 
d="M0 0v448h256v-448h-256zM1056 0l-192 192h-352l-256 256h704l448 -448h-352zM0 512v256h256l128 128h768l256 -256l-128 -128h-352l96 96l-32 32h-512l-128 -128h-352z" />
    <glyph glyph-name="S" unicode="S" 
d="M256 0l-256 256h1152v-256h-896zM1408 0l-256 256v64h-1152v320l256 256h1152v-256h-1056l-64 -64h1120v-576v0z" />
    <glyph glyph-name="T" unicode="T" 
d="M832 -192l-256 256v576h-576v256h1408v-256h-576v-832v0z" />
    <glyph glyph-name="U" unicode="U" 
d="M256 0l-256 256v640h256v-544l96 -96h800l256 -256h-1152zM1408 96l-256 256v544h256v-800v0z" />
    <glyph glyph-name="V" unicode="V" horiz-adv-x="1408" 
d="M0 0v896h256v-640l-256 -256v0zM96 0l896 896h352l-896 -896h-352z" />
    <glyph glyph-name="W" unicode="W" 
d="M320 0l-320 320v576h256v-480l64 -64l224 224h352l-576 -576v0zM672 0l-128 128l176 176l48 -48h256l128 128v512h256v-608l-288 -288h-448z" />
    <glyph glyph-name="X" unicode="X" 
d="M0 0v256h336l144 144l176 -176l-224 -224h-432zM976 0l-640 640h-336v256h432l640 -640h336v-256h-432zM928 496l-176 176l224 224h432v-256h-336l-144 -144v0z" />
    <glyph glyph-name="Y" unicode="Y" 
d="M0 0v256h1056l352 352v-352l-256 -256h-1152zM0 320v576h256v-320h672l224 224v96h256v-192l-384 -384h-1024z" />
    <glyph glyph-name="Z" unicode="Z" 
d="M608 0v256h800v-256h-800zM0 640v256h960l-256 -256h-704zM-64 -64l640 640h160l320 320h352l-576 -576h-160l-384 -384h-352z" />
    <glyph glyph-name="bracketleft" unicode="[" horiz-adv-x="576" 
d="M0 0v640h256v-384h256v-256h-512zM256 640l-256 256h512v-256h-256z" />
    <glyph glyph-name="backslash" unicode="\" 
d="M976 0l-640 640h-336v256h432l640 -640h336v-256h-432z" />
    <glyph glyph-name="bracketright" unicode="]" horiz-adv-x="576" 
d="M0 0v256h256l256 -256h-512zM256 256v384h-256v256h512v-640h-256z" />
    <glyph glyph-name="asciicircum" unicode="^" horiz-adv-x="960" 
d="M0 576l320 320h256l320 -320h-352l-96 96l-96 -96h-352z" />
    <glyph glyph-name="underscore" unicode="_" 
d="M0 0v256h1408v-256h-1408z" />
    <glyph glyph-name="grave" unicode="`" horiz-adv-x="704" 
d="M256 640l-256 256h640v-256h-384z" />
    <glyph glyph-name="a" unicode="a" 
d="M128 -160v352l384 384h640l-256 -256h-288l-480 -480v0zM1152 0v640h-672l-128 -128h-352l384 384h1024v-896h-256z" />
    <glyph glyph-name="b" unicode="b" 
d="M0 0v640h256v-384h672l240 240l240 -240l-256 -256h-1152zM256 320l256 256h288l32 32l-32 32h-544l-256 256h896l288 -288l-288 -288h-640z" />
    <glyph glyph-name="c" unicode="c" 
d="M576 0l-352 352l224 224h352l-224 -224l96 -96h736v-256h-832zM176 400l-176 176l320 320h1088v-256h-992l-240 -240v0z" />
    <glyph glyph-name="d" unicode="d" 
d="M0 0v384l256 256v-384h576l-256 -256h-576zM608 -64l544 544v160h-1152v256h1408v-512l-448 -448h-352z" />
    <glyph glyph-name="e" unicode="e" 
d="M832 0l-256 256h832v-256h-576zM512 320l-256 256h1152v-256h-896zM448 -64l-448 448v256h256v-160l544 -544h-352zM256 640l-256 256h1408v-256h-1152z" />
    <glyph glyph-name="f" unicode="f" 
d="M64 0v448l128 128h352l-224 -224v-352h-256zM384 320l256 256h768v-256h-1024zM0 640l256 256h1152v-256h-1408z" />
    <glyph glyph-name="g" unicode="g" 
d="M320 0l-256 256l320 320h352l-288 -288l32 -32h672v64h-384l256 256h384v-576h-1088zM176 464l-176 176l256 256h1152v-256h-1056l-176 -176v0z" />
    <glyph glyph-name="h" unicode="h" 
d="M0 0v896h256v-896h-256zM1152 0v320h-640l-256 256h896v320h256v-896h-256z" />
    <glyph glyph-name="i" unicode="i" horiz-adv-x="320" 
d="M256 -128l-256 256v768h256v-1024v0z" />
    <glyph glyph-name="j" unicode="j" 
d="M320 0l-320 320l256 256h352l-256 -256l64 -64h576l64 64h352l-320 -320h-768zM928 384l224 224v288h256v-384l-128 -128h-352z" />
    <glyph glyph-name="k" unicode="k" 
d="M0 0v896h256v-320h192l320 -320h640v-256h-736l-320 320h-96v-320h-256zM736 384l-176 176l336 336h512v-256h-416l-256 -256v0z" />
    <glyph glyph-name="l" unicode="l" 
d="M256 0l-256 256v640h256v-544l96 -96h1056l-256 -256h-896z" />
    <glyph glyph-name="m" unicode="m" 
d="M1152 0v192l256 256v-448h-256zM704 -160l-448 448v-288h-256v896l704 -704l704 704v-352l-704 -704v0z" />
    <glyph glyph-name="n" unicode="n" 
d="M0 0v896h432l896 -896h-352l-576 576h-144v-576h-256zM1408 16l-256 256v624h256v-880v0z" />
    <glyph glyph-name="o" unicode="o" 
d="M1152 256v384h-896v-288l96 -96h800zM256 0l-256 256v640h1408v-896h-1152z" />
    <glyph glyph-name="p" unicode="p" 
d="M64 0v576h256v-576h-256zM0 640v256h1312l-256 -256h-1056zM576 320l-256 256h768l320 320v-352l-224 -224h-608z" />
    <glyph glyph-name="q" unicode="q" 
d="M0 0v512l384 384h1024v-848l-256 256v336h-672l-224 -224v-160h496l-128 128h352l384 -384h-1360z" />
    <glyph glyph-name="r" unicode="r" 
d="M0 0v448h256v-448h-256zM1056 0l-192 192h-352l-256 256h704l448 -448h-352zM0 512v256h256l128 128h768l256 -256l-128 -128h-352l96 96l-32 32h-512l-128 -128h-352z" />
    <glyph glyph-name="s" unicode="s" 
d="M256 0l-256 256h1152v-256h-896zM1408 0l-256 256v64h-1152v320l256 256h1152v-256h-1056l-64 -64h1120v-576v0z" />
    <glyph glyph-name="t" unicode="t" 
d="M576 -192v832h-576v256h1408v-256h-576v-576l-256 -256v0z" />
    <glyph glyph-name="u" unicode="u" 
d="M256 0l-256 256v640h256v-544l96 -96h800l256 -256h-1152zM1408 96l-256 256v544h256v-800v0z" />
    <glyph glyph-name="v" unicode="v" horiz-adv-x="1408" 
d="M0 0v896h256v-640l-256 -256v0zM96 0l896 896h352l-896 -896h-352z" />
    <glyph glyph-name="w" unicode="w" 
d="M288 0l-288 288v608h256v-512l128 -128h256l48 48l176 -176l-128 -128h-448zM1088 0l-576 576h352l224 -224l64 64v480h256v-576l-320 -320v0z" />
    <glyph glyph-name="x" unicode="x" 
d="M976 0l-224 224l176 176l144 -144h336v-256h-432zM480 496l-144 144h-336v256h432l224 -224l-176 -176v0zM0 0v256h336l640 640h432v-256h-336l-640 -640h-432z" />
    <glyph glyph-name="y" unicode="y" 
d="M0 0v256h1056l352 352v-352l-256 -256h-1152zM0 320v576h256v-320h672l224 224v96h256v-192l-384 -384h-1024z" />
    <glyph glyph-name="z" unicode="z" 
d="M608 0v256h800v-256h-800zM0 640v256h960l-256 -256h-704zM-64 -64l640 640h160l320 320h352l-576 -576h-160l-384 -384h-352z" />
    <glyph glyph-name="braceleft" unicode="{" horiz-adv-x="704" 
d="M256 0l-128 128v192h-128v256h128l256 -256v-64h256v-256h-384zM128 576v192l128 128h384v-256h-256v-64h-256z" />
    <glyph glyph-name="bar" unicode="|" horiz-adv-x="320" 
d="M0 0v896h256v-896h-256z" />
    <glyph glyph-name="braceright" unicode="}" horiz-adv-x="704" 
d="M0 0v256h256v64h256v-192l-128 -128h-384zM512 320l-256 256v64h-256v256h384l128 -128v-192h128v-256h-128z" />
    <glyph glyph-name="asciitilde" unicode="~" horiz-adv-x="1088" 
d="M0 256v128l256 256h400l-256 -256h-144v-128h-256zM368 256l256 256h144v128h256v-128l-256 -256h-400z" />
  </font>
</defs>
</svg>
